Rocket Raja (Thikka) (2016) Hindi Dubbed 720p WEBHD x264 AAC – ESubs – 1GB – Filmiwar

posted in: South Dubbed, Trend | 0


General
Complete name                            : www.movcr.com – Rocket Raja (Thikka) (2016) Hindi Dubbed 720p WEBHD x264 AAC – ESubs – 1GB – MovCr.mkv
Format                                   : Matroska
Format version                           : Version 4 / Version 2
File size                                : 1.06 GiB
Duration                                 : 1 h 59 min
Overall bit rate                         : 1 275 kb/s
Encoded date                             : UTC 2018-02-13 08:14:07
Writing application                      : mkvmerge v20.0.0 (‘I Am The Sun’) 64-bit
Writing library                          : libebml v1.3.5 + libmatroska v1.4.8 / IDMmkvlib0.1
Language                                 : und

Video
ID                                       : 1
Format                                   : VP9
Codec ID                                 : V_VP9
Duration                                 : 1 h 59 min
Bit rate                                 : 1 144 kb/s
Width                                    : 1 280 pixels
Height                                   : 720 pixels
Display aspect ratio                     : 16:9
Frame rate mode                          : Constant
Frame rate                               : 25.000 FPS
Bits/(Pixel*Frame)                       : 0.050
Stream size                              : 976 MiB (90%)
Default                                  : Yes
Forced                                   : No

Audio
ID                                       : 2
Format                                   : Opus
Codec ID                                 : A_OPUS
Duration                                 : 1 h 59 min
Bit rate                                 : 128 kb/s
Channel(s)                               : 2 channels
Channel positions                        : Front: L R
Sampling rate                            : 48.0 kHz
Frame rate                               : 50.000 FPS (960 SPF)
Compression mode                         : Lossy
Stream size                              : 110 MiB (10%)
Language                                 : Hindi
Default                                  : Yes
Forced                                   : No

Text
ID                                       : 3
Format                                   : UTF-8
Codec ID                                 : S_TEXT/UTF8
Codec ID/Info                            : UTF-8 Plain Text
Duration                                 : 1 h 58 min
Bit rate                                 : 93 b/s
Count of elements                        : 2156
Stream size                              : 81.3 KiB (0%)
Language                                 : English
Default                                  : Yes
Forced                                   : No

Click On Image View Full Size









1CnbmYmViVdxgLnhqJzp2ENzsWxnx4iUyT


!!!…Keep Seeding After Download…!!!

Download this torrent | Magnet Download
Health: 

Leave a Reply