Mumon The Land of Stealth 2017 JAPANESE 1080p BRRip x264 AAC – Filmiwar

posted in: 1080p Movies, Trend | 0

Source:Wiki
Format                      : Matroska
Format version              : Version 4 / Version 2
File size                   : 2.47 GiB
Duration                    : 2 h 4 min
Overall bit rate            : 2 831 kb/s
Movie name                  : Mumon.The.Land.of.Stealth.2017 – Hon3y

Video
ID                          : 1
Format                      : AVC
Format/Info                 : Advanced Video Codec
Format profile              : High@L4.1
Format settings, CABAC      : Yes
Format settings, RefFrames  : 5 frames
Codec ID                    : V_MPEG4/ISO/AVC
Duration                    : 2 h 4 min
Bit rate                    : 2 500 kb/s
Width                       : 1 920 pixels
Height                      : 800 pixels
Display aspect ratio        : 2.40:1
Frame rate mode             : Constant
Frame rate                  : 23.976 (24000/1001) FPS
Language                    : English
Default                     : Yes
Forced                      : No
Color range                 : Limited
Color primaries             : BT.709
Transfer characteristics    : BT.709
Matrix coefficients         : BT.709

Audio
ID                          : 2
Format                      : AAC
Format/Info                 : Advanced Audio Codec
Format profile              : LC
Codec ID                    : A_AAC
Duration                    : 2 h 4 min
Bit rate                    : 320 kb/s
Channel(s)                  : 6 channels
Channel positions           : Front: L C R, Side: L R, LFE
Sampling rate               : 48.0 kHz
Frame rate                  : 46.875 FPS (1024 SPF)
Compression mode            : Lossy
Delay relative to video     : 9 ms
Stream size                 : 285 MiB (11%)
Language                    : Japanese
Default                     : Yes
Forced                      : No

Text
ID                          : 3
Format                      : ASS
Codec ID                    : S_TEXT/ASS
Codec ID/Info               : Advanced Sub Station Alpha
Duration                    : 2 h 4 min
Bit rate                    : 74 b/s
Count of elements           : 1329
Compression mode            : Lossless
Stream size                 : 68.2 KiB (0%)
Language                    : Chinese
Default                     : Yes
Forced                      : No

Click On Image To View Full Size

          


1CnbmYmViVdxgLnhqJzp2ENzsWxnx4iUyT


!!!…Keep Seeding After Download…!!!

Leave a Reply