When.We.First.Met.2018.720p.BluRay.x264.LLG

posted in: 720p Movies, Trend | 0

Imdb Picture

Complete name                            : When.We.First.Met.2018.720p.BluRay.x264.LLG
Format                                   : MPEG-4
Format profile                           : Base Media
Codec ID                                 : isom (isom/iso2/avc1/mp41)
File size                                : 698 MiB
Duration                                 : 1 h 37 min
Overall bit rate                         : 1 006 kb/s
Writing application                      : Lavf57.56.101

Video
ID                                       : 1
Format                                   : AVC
Format/Info                              : Advanced Video Codec
Format profile                           : High@L3.1
Format settings                          : CABAC / 4 Ref Frames
Format settings, CABAC                   : Yes
Format settings, RefFrames               : 4 frames
Codec ID                                 : avc1
Codec ID/Info                            : Advanced Video Coding
Duration                                 : 1 h 37 min
Bit rate                                 : 900 kb/s
Width                                    : 1 280 pixels
Height                                   : 714 pixels
Display aspect ratio                     : 16:9
Frame rate mode                          : Constant
Frame rate                               : 23.976 (23976/1000) FPS
Color space                              : YUV
Chroma subsampling                       : 4:2:0
Bit depth                                : 8 bits
Scan type                                : Progressive
Bits/(Pixel*Frame)                       : 0.041
Stream size                              : 605 MiB (87%)

Audio
ID                                       : 2
Format                                   : AAC
Format/Info                              : Advanced Audio Codec
Format profile                           : LC
Codec ID                                 : mp4a-40-2
Duration                                 : 1 h 37 min
Duration_LastFrame                       : -16 ms
Bit rate mode                            : Constant
Bit rate                                 : 128 kb/s
Channel(s)                               : 2 channels
Channel positions                        : Front: L R
Sampling rate                            : 48.0 kHz
Frame rate                               : 46.875 FPS (1024 SPF)
Compression mode                         : Lossy
Stream size                              : 89.0 MiB (13%)
Default                                  : Yes
Alternate group                          : 1

Hope to see you soon....Hope to see you soon....Hope to see you soon....Hope to see you soon....Hope to see you soon....Hope to see you soon....


1CnbmYmViVdxgLnhqJzp2ENzsWxnx4iUyT


!!!…Keep Seeding After Download…!!!

Leave a Reply