Fifty Shades Freed 2018 720p HDCAM x264 AAC

posted in: Pre-Releases, Trend | 0

General
Format                      : Matroska
Format version              : Version 4 / Version 2
File size                   : 1 014 MiB
Duration                    : 1 h 39 min
Overall bit rate            : 1 426 kb/s

Video
ID                          : 1
Format                      : AVC
Format/Info                 : Advanced Video Codec
Format profile              : High@L4.1
Format settings             : CABAC / 4 Ref Frames
Format settings, CABAC      : Yes
Format settings, ReFrames   : 4 frames
Codec ID                    : V_MPEG4/ISO/AVC
Duration                    : 1 h 39 min
Bit rate                    : 1 300 kb/s
Width                       : 1 280 pixels
Height                      : 640 pixels
Display aspect ratio        : 2.000
Frame rate mode             : Constant
Frame rate                  : 29.970 (30000/1001) FPS
Color space                 : YUV
Chroma subsampling          : 4:2:0
Bit depth                   : 8 bits
Scan type                   : Progressive
Bits/(Pixel*Frame)          : 0.053
Stream size                 : 921 MiB (91%)
Writing library             : x264 core 148 r2708 86b7198
Default                     : Yes
Forced                      : No

Audio
ID                          : 2
Format                      : AAC
Format/Info                 : Advanced Audio Codec
Format profile              : LC
Codec ID                    : A_AAC-2
Duration                    : 1 h 39 min
Bit rate                    : 128 kb/s
Channel(s)                  : 2 channels
Channel positions           : Front: L R
Sampling rate               : 44.1 kHz
Frame rate                  : 43.066 FPS (1024 SPF)
Compression mode            : Lossy
Stream size                 : 91.0 MiB (9%)
Language                    : English
Default                     : Yes
Forced                      : No

 

















1CnbmYmViVdxgLnhqJzp2ENzsWxnx4iUyT


!!!…Keep Seeding After Download…!!!

Download this torrent | Magnet Download
Health: 

Leave a Reply